[WEB-RIP] 孕ませ屋 THE ANIMATION #2 [1080P_HEVC_AAC]

Category:
Date:
2024-05-11 16:24 UTC
Submitter:
Anonymous
Seeders:
65
Information:
No information.
Leechers:
3
File size:
415.7 MiB
Completed:
11690
Info hash:
5a3d6a3e7da090ba61c6f71eda1017e7919eb79a
![alt text](https://doujin-assets.dmm.co.jp/digital/cg/d_368634/d_368634pr.jpg) ![alt text](https://doujin-assets.dmm.co.jp/digital/cg/d_368634/d_368634jp-001.jpg) ![alt text](https://doujin-assets.dmm.co.jp/digital/cg/d_368634/d_368634jp-002.jpg) ![alt text](https://doujin-assets.dmm.co.jp/digital/cg/d_368634/d_368634jp-003.jpg) ![alt text](https://doujin-assets.dmm.co.jp/digital/cg/d_368634/d_368634jp-004.jpg) ![alt text](https://doujin-assets.dmm.co.jp/digital/cg/d_368634/d_368634jp-005.jpg) ![alt text](https://doujin-assets.dmm.co.jp/digital/cg/d_368634/d_368634jp-006.jpg) ![alt text](https://doujin-assets.dmm.co.jp/digital/cg/d_368634/d_368634jp-007.jpg) ![alt text](https://doujin-assets.dmm.co.jp/digital/cg/d_368634/d_368634jp-008.jpg) ●作品紹介● 普通のサラリーマン、寺田の元に舞い込んだのは 女性に膣内射精をして妊娠させる仕事…!? FANZA同人にてDL数60000超えのあの大人気コミック 原作:なかじまゆか(Digital Lover)の「孕ませ屋」を完全アニメ化!! こちらは#1の続きになります。 ●#2のあらすじ● 初仕事から3ヶ月後、 客として現れたのは前回と同じ飯島来未だった。 妊娠させられなかったことを謝る寺田だったが 来未の態度はどこか以前と違っており、セックスにも協力的で…? 「そちらの方が早く終わるというのなら…」と言いつつ 積極的に喘ぎ声を出したり、手コキに対応ー!? そして前回よりも濃厚な性行為野中で寺田は これは静止画欲しいだけではなくただセックスがしたいだけなのではないかと気付き 3回目のセックスを提案するが… ●キャラ紹介● ・寺田暁斗 大卒の会社員 怪我の治りが早い身体的特徴を持つ 祖父の遺伝子研究により、暁斗の精液は妊娠率が高いことが判明 祖父の研究結果と過去の体験からセックスに対しトラウマを持つ ・飯島来未 精子バンクの顧客 既婚者で夫の実家から子をせがまれるも、夫は無精子症と判明 義実家から跡継ぎを早く作れという圧力があり、仕方なく精子提供を受けることに 夫の事は好きで精子提供を受けることに抵抗がある ・須藤縁 寺田に精子提供を願い出た精子バンク職員。 寺田の精子が特別なものであるとわかり 会社のためになんとしてでも精子提供として欲しいと思っている。 クールで淡々とした対応。 *本作はごく軽いNTR描写を含みます ーーー 原作:なかじまゆか(Digital Lover ) 製作:とるだ屋 当作品の原作:digital loverさん「孕ませ屋 シリーズ」はこちら! MEDIAINFO: ``` General Complete name : C:\Users\Administrator\Downloads\Compressed\[WEB-RIP] 孕ませ屋 THE ANIMATION #2 [1080P_HEVC_AAC].mp4 Format : MPEG-4 Format profile : Base Media Codec ID : isom (isom/iso2/mp41) File size : 416 MiB Duration : 17 min 50 s Overall bit rate mode : Variable Overall bit rate : 3 259 kb/s Frame rate : 23.976 FPS Writing application : Lavf60.10.101 Video ID : 1 Format : HEVC Format/Info : High Efficiency Video Coding Format profile : Main@L4@Main Codec ID : hev1 Codec ID/Info : High Efficiency Video Coding Duration : 17 min 50 s Bit rate : 3 001 kb/s Width : 1 920 pixels Height : 1 080 pixels Display aspect ratio : 16:9 Frame rate mode : Constant Frame rate : 23.976 (24000/1001) FPS Color space : YUV Chroma subsampling : 4:2:0 (Type 0) Bit depth : 8 bits Scan type : Progressive Bits/(Pixel*Frame) : 0.060 Stream size : 383 MiB (92%) Writing library : x265 3.5+106-dc325c8a2:[Windows][GCC 13.2.0][64 bit] 8bit+10bit+12bit Encoding settings : cpuid=1111039 / frame-threads=5 / numa-pools=44,44 / wpp / no-pmode / no-pme / no-psnr / no-ssim / log-level=2 / input-csp=1 / input-res=1920x1080 / interlace=0 / total-frames=0 / level-idc=0 / high-tier=1 / uhd-bd=0 / ref=4 / no-allow-non-conformance / no-repeat-headers / annexb / no-aud / no-eob / no-eos / no-hrd / info / hash=0 / temporal-layers=0 / open-gop / min-keyint=23 / keyint=250 / gop-lookahead=0 / bframes=4 / b-adapt=2 / b-pyramid / bframe-bias=0 / rc-lookahead=25 / lookahead-slices=4 / scenecut=40 / no-hist-scenecut / radl=0 / no-splice / no-intra-refresh / ctu=64 / min-cu-size=8 / rect / no-amp / max-tu-size=32 / tu-inter-depth=1 / tu-intra-depth=1 / limit-tu=0 / rdoq-level=2 / dynamic-rd=0.00 / no-ssim-rd / signhide / no-tskip / nr-intra=0 / nr-inter=0 / no-constrained-intra / strong-intra-smoothing / max-merge=3 / limit-refs=3 / limit-modes / me=3 / subme=3 / merange=57 / temporal-mvp / no-frame-dup / no-hme / weightp / no-weightb / no-analyze-src-pics / deblock=0:0 / sao / no-sao-non-deblock / rd=4 / selective-sao=4 / no-early-skip / rskip / no-fast-intra / no-tskip-fast / no-cu-lossless / no-b-intra / no-splitrd-skip / rdpenalty=0 / psy-rd=2.00 / psy-rdoq=1.00 / no-rd-refine / no-lossless / cbqpoffs=0 / crqpoffs=0 / rc=abr / bitrate=3000 / qcomp=0.60 / qpstep=4 / stats-write=0 / stats-read=2 / cplxblur=20.0 / qblur=0.5 / ipratio=1.40 / pbratio=1.30 / aq-mode=2 / aq-strength=1.00 / cutree / zone-count=0 / no-strict-cbr / qg-size=32 / no-rc-grain / qpmax=69 / qpmin=0 / no-const-vbv / sar=1 / overscan=0 / videoformat=5 / range=0 / colorprim=1 / transfer=1 / colormatrix=1 / chromaloc=1 / chromaloc-top=0 / chromaloc-bottom=0 / display-window=0 / cll=0,0 / min-luma=0 / max-luma=255 / log2-max-poc-lsb=8 / vui-timing-info / vui-hrd-info / slices=1 / no-opt-qp-pps / no-opt-ref-list-length-pps / no-multi-pass-opt-rps / scenecut-bias=0.05 / no-opt-cu-delta-qp / no-aq-motion / no-hdr10 / no-hdr10-opt / no-dhdr10-opt / no-idr-recovery-sei / analysis-reuse-level=0 / analysis-save-reuse-level=0 / analysis-load-reuse-level=0 / scale-factor=0 / refine-intra=0 / refine-inter=0 / refine-mv=1 / refine-ctu-distortion=0 / no-limit-sao / ctu-info=0 / no-lowpass-dct / refine-analysis-type=0 / copy-pic=1 / max-ausize-factor=1.0 / no-dynamic-refine / no-single-sei / no-hevc-aq / no-svt / no-field / qp-adaptation-range=1.00 / scenecut-aware-qp=0conformance-window-offsets / right=0 / bottom=0 / decoder-max-rate=0 / no-vbv-live-multi-pass / no-mcstf / no-sbrc Color range : Limited Color primaries : BT.709 Transfer characteristics : BT.709 Matrix coefficients : BT.709 Codec configuration box : hvcC Audio ID : 2 Format : AAC LC Format/Info : Advanced Audio Codec Low Complexity Codec ID : mp4a-40-2 Duration : 17 min 50 s Source duration : 17 min 50 s Bit rate mode : Variable Bit rate : 252 kb/s Maximum bit rate : 320 kb/s Channel(s) : 2 channels Channel layout : L R Sampling rate : 48.0 kHz Frame rate : 46.875 FPS (1024 SPF) Compression mode : Lossy Stream size : 32.1 MiB (8%) Source stream size : 32.1 MiB (8%) Default : Yes Alternate group : 1 ```

File list

  • [WEB-RIP] 孕ませ屋 THE ANIMATION #2 [1080P_HEVC_AAC].mp4 (415.7 MiB)
Salanathanks boss