Usamimi Boukentan Sekuhara Shinagara Sekai o Sukue - 01 [Eng-Sub Cen 1080p]

Category:
Date:
2021-09-15 02:48 UTC
Submitter:
Seeders:
9
Information:
No information.
Leechers:
2
File size:
478.8 MiB
Completed:
851
Info hash:
a004644a54c13c5fa56990193d362f0ad8bb54fa
Some what better then the DVDRip. Eng-Sub = [SakuraCircle] PS: Sorry I do not take requests ![img](https://i.postimg.cc/MTdGMvf4/Usamimi-Boukentan-Sekuhara-Shinagara-Sekai-o-Sukue-01.png) Video ID : 1 Format : AVC Format/Info : Advanced Video Codec Format profile : High@L4.1 Format settings : CABAC / 4 Ref Frames Format settings, CABAC : Yes Format settings, Reference : 4 frames Codec ID : V_MPEG4/ISO/AVC Duration : 16 min 31 s Bit rate : 3 842 kb/s Width : 1 920 pixels Height : 1 080 pixels Display aspect ratio : 16:9 Frame rate mode : Constant Frame rate : 23.976 (23976/1000) FPS Color space : YUV Chroma subsampling : 4:2:0 Bit depth : 8 bits Scan type : Progressive Bits/(Pixel*Frame) : 0.077 Stream size : 454 MiB (95%) Writing library : x264 core 161 Encoding settings : cabac=1 / ref=4 / deblock=1:1:1 / analyse=0x3:0x133 / me=umh / subme=9 / psy=1 / psy_rd=1.20:0.05 / mixed_ref=1 / me_range=64 / chroma_me=1 / trellis=2 / 8x8dct=1 / cqm=0 / deadzone=21,11 / fast_pskip=1 / chroma_qp_offset=-3 / threads=3 / lookahead_threads=1 / sliced_threads=0 / nr=0 / decimate=1 / interlaced=0 / bluray_compat=0 / constrained_intra=0 / bframes=6 / b_pyramid=2 / b_adapt=2 / b_bias=0 / direct=3 / weightb=1 / open_gop=0 / weightp=2 / keyint=250 / keyint_min=23 / scenecut=40 / intra_refresh=0 / rc_lookahead=60 / rc=crf / mbtree=1 / crf=15.0 / qcomp=0.70 / qpmin=0 / qpmax=69 / qpstep=4 / vbv_maxrate=55000 / vbv_bufsize=70625 / crf_max=0.0 / nal_hrd=none / filler=0 / ip_ratio=1.40 / aq=2:1.20 Language : Japanese Default : Yes Forced : No Audio ID : 2 Format : AAC LC Format/Info : Advanced Audio Codec Low Complexity Codec ID : A_AAC-2 Duration : 16 min 31 s Bit rate : 192 kb/s Channel(s) : 2 channels Channel layout : L R Sampling rate : 48.0 kHz Frame rate : 46.875 FPS (1024 SPF) Compression mode : Lossy Stream size : 22.4 MiB (5%) Title : AAC - 2.0ch [Jpn] Language : Japanese Default : Yes Forced : No Text ID : 3 Format : ASS Codec ID : S_TEXT/ASS Codec ID/Info : Advanced Sub Station Alpha Duration : 16 min 9 s Bit rate : 127 b/s Count of elements : 231 Compression mode : Lossless Stream size : 15.1 KiB (0%) Title : SakuraCircle - Translated by Tennouji Language : English Default : Yes Forced : No Menu 00:00:00.000 : :Intro 00:00:57.316 : :Title 00:01:02.321 : :Part 1 00:03:48.236 : :Part 2 00:07:53.106 : :Part 3 00:10:35.727 : :Part 4 00:13:44.916 : :Part 5 00:14:50.723 : :Ending

File list

  • Usamimi Boukentan Sekuhara Shinagara Sekai o Sukue - 01 [Eng-Sub Cen 1080p] (D8AB3639).mkv (478.8 MiB)