Swing Out Sisters スウィング アウト シスターズ OP [1080p 60fps]

Category:
Date:
2018-12-27 21:44 UTC
Submitter:
Seeders:
6
File size:
125.0 MiB
Completed:
410
Info hash:
7a461b98b962fdc2ee49cbcdf8f3db3e619e31a6
General Format : MPEG-4 Format profile : Base Media / Version 2 Codec ID : mp42 (mp42/mp41) File size : 125 MiB Duration : 1 min 29 s Overall bit rate mode : Variable Overall bit rate : 11.7 Mb/s Encoded date : UTC 2018-12-27 21:37:20 Tagged date : UTC 2018-12-27 21:37:22 TIM : 00:00:00:00 TSC : 60 TSZ : 1 Video ID : 1 Format : AVC Format/Info : Advanced Video Codec Format profile : High@L4.2 Format settings : CABAC / 2 Ref Frames Format settings, CABAC : Yes Format settings, ReFrames : 2 frames Format settings, GOP : M=3, N=60 Codec ID : avc1 Codec ID/Info : Advanced Video Coding Duration : 1 min 29 s Bit rate mode : Variable Bit rate : 11.5 Mb/s Maximum bit rate : 16.0 Mb/s Width : 1 920 pixels Height : 1 080 pixels Display aspect ratio : 16:9 Frame rate mode : Constant Frame rate : 60.000 FPS Color space : YUV Chroma subsampling : 4:2:0 Bit depth : 8 bits Scan type : Progressive Bits/(Pixel*Frame) : 0.092 Stream size : 123 MiB (98%) Language : English Encoded date : UTC 2018-12-27 21:37:20 Tagged date : UTC 2018-12-27 21:37:20 Codec configuration box : avcC Audio ID : 2 Format : AAC LC Format/Info : Advanced Audio Codec Low Complexity Codec ID : mp4a-40-2 Duration : 1 min 29 s Source duration : 1 min 29 s Bit rate mode : Variable Bit rate : 192 kb/s Maximum bit rate : 280 kb/s Channel(s) : 2 channels Channel layout : L R Sampling rate : 44.1 kHz Frame rate : 43.066 FPS (1024 SPF) Compression mode : Lossy Stream size : 2.03 MiB (2%) Source stream size : 2.03 MiB (2%) Language : English Encoded date : UTC 2018-12-27 21:37:20 Tagged date : UTC 2018-12-27 21:37:20

File list

  • Swing Out Sisters スウィング アウト シスターズ OP [1080p 60fps].mp4 (125.0 MiB)

Comments - 0