Haha Sange / Step MILF (ep. 1-2 of 2) [uncen] [2010, DVD5] [Japanese, English]

Category:
Date:
2018-12-26 17:54 UTC
Submitter:
Seeders:
5
Information:
No information.
Leechers:
4
File size:
2.9 GiB
Completed:
406
Info hash:
a2203a0b467201aad329a7860fdeebbaa493ad43
![](http://i52.fastpic.ru/big/2013/0411/a6/953ebcb137e72d5711d1bc7e5f9aa6a6.jpg) __Year of production:__ 2010 12/02/2010 to 14/05/2010 __Genre:__ BDSM, Bondage, Students, Housewives, Incest, Big Tits, Masturbation, Rape, Romance, Virgins, Yuri __Series:__ ep. 1-2 of 2 __Duration:__ 2 * 27 min __Censorship:__ None __Voice:__ Japanese Original __Voice:__ English Professional (full duplication) __Director:__ Yoneda Mitsuhiro __Original author:__ Anim __Studio:__ Digital Works __Description:__ Tomonori is a high school student who lives with his father after his mother dies. However, life goes on and the father marries again, a very young and beautiful girl. So in the house there is a beautiful stepmother and her equally attractive daughter. Can our hero resist the temptation? __Video quality:__ DVD-5 __Video:__ MPEG2 | NTSC | 4x3 | 720x480 | 7000 Kbps __Audio:__ JAP #1: AC-3 | 48000Hz | 192 Kbps | 2ch __Audio:__ ENG #2: AC-3 | 48000Hz | 192 Kbps | 2ch __Mediainfo:__ ``` General Complete name : H:\VIDEO_TS\VTS_01_1.VOB Format : MPEG-PS File size : 1 024 MiB Duration : 19mn 0s Overall bit rate : 7 529 Kbps Video ID : 224 (0xE0) Format : MPEG Video Format version : Version 2 Format profile : Main@Main Format settings, BVOP : Yes Format settings, Matrix : Custom Format settings, GOP : M=3, N=15 Duration : 19mn 0s Bit rate : 7 000 Kbps Width : 720 pixels Height : 480 pixels Display aspect ratio : 4:3 Frame rate : 29.970 fps Standard : NTSC Color space : YUV Chroma subsampling : 4:2:0 Bit depth : 8 bits Scan type : Interlaced Scan order : Bottom Field First Compression mode : Lossy Bits/(Pixel*Frame) : 0.676 Stream size : 951 MiB (93%) Color primaries : SMPTE 170M Transfer characteristics : SMPTE 170M Matrix coefficients : SMPTE 170M Audio #1 ID : 189 (0xBD)-128 (0x80) Format : AC-3 Format/Info : Audio Coding 3 Mode extension : CM (complete main) Muxing mode : DVD-Video Duration : 19mn 0s Bit rate mode : Constant Bit rate : 192 Kbps Channel(s) : 2 channels Channel positions : Front: L R Sampling rate : 48.0 KHz Bit depth : 16 bits Compression mode : Lossy Stream size : 26.1 MiB (3%) Audio #2 ID : 189 (0xBD)-129 (0x81) Format : AC-3 Format/Info : Audio Coding 3 Mode extension : CM (complete main) Muxing mode : DVD-Video Duration : 19mn 0s Bit rate mode : Constant Bit rate : 192 Kbps Channel(s) : 2 channels Channel positions : Front: L R Sampling rate : 48.0 KHz Bit depth : 16 bits Compression mode : Lossy Stream size : 26.1 MiB (3%) Text ID : 189 (0xBD)-32 (0x20) Format : RLE Format/Info : Run-length encoding Muxing mode : DVD-Video

File list

  • Haha Sange
    • 01. Volume 1_02. Volume 2.ISO (2.9 GiB)

Comments - 0