Green Eyes: Ane Kyun! yori The Animation (ep. 1 of 1) [uncen] [2017, BDRip, 1080p] [Japanese, English, Spanish, Russian, Chinese]

Category:
Date:
2018-12-26 17:19 UTC
Submitter:
Seeders:
18
Information:
No information.
Leechers:
0
File size:
611.3 MiB
Completed:
1751
Info hash:
d513bdf8c150cc56bd1a8b78c4c160fa7cfb4904
![](https://i104.fastpic.ru/big/2018/0726/39/cf8837b79516368aa54527964b515739.jpg) __Year of release:__ 2017 __Genre:__ incest, virgin, oral, handjob, creampie __Series:__ ep. 1 of 1 __Duration:__ 16mn __Censorship:__ None __Voice:__ Japanese original __Subtitles:__ Russian [IbanPetrov] external ASS __Subtitles:__ English [HH], [Hentaisun] external ASS __Subtitles:__ Spanish [Dai-Anime], [GSF] External ASS __Subtitles:__ Chinese [Maho.sub] External ASS __Original author:__ Yuzuki N` __Studio:__ ms-pictures, BOOTLEG __Description:__ Haruto has a great sister. Green-eyed beauty with a great figure and gorgeous hair. That's just the character let us down. Pushes the poor fellow as he wants. That, at night looking, dvd in rental will send back, then underwear to erase will make ... We pity the unfortunate young man. __Video quality:__ BDrip [erokuni] __Video Resolution:__ 1080p __Video Format:__ MKV __Video:__ 1920-1080, 16-9, 23.976 fps, AVC, 5237 kbps __Audio:__ jpn, AAC, Stereo, 48.0 KHz, 160 kbps __Mediainfo:__ ``` General Unique ID : 194407190793590068489784601062262376605 (0x924176882CAB27BD5FAAFF716D0F089D) Complete name : Green_eyes_-_Ane_kyun!_Yori_[UNCEN][BDrip][erokuni][E9C6516F].mkv Format : Matroska Format version : Version 4 / Version 2 File size : 611 MiB Duration : 15 min 49 s Overall bit rate : 5 399 kb/s Encoded date : UTC 2018-09-18 15:02:34 Writing application : mkvmerge v26.0.0 ('In The Game') 64-bit Writing library : libebml v1.3.6 + libmatroska v1.4.9 Video ID : 1 Format : AVC Format/Info : Advanced Video Codec Format profile : High 10@L5.1 Format settings : CABAC / 16 Ref Frames Format settings, CABAC : Yes Format settings, RefFrames : 16 frames Codec ID : V_MPEG4/ISO/AVC Duration : 15 min 49 s Bit rate : 5 237 kb/s Width : 1 920 pixels Height : 1 080 pixels Display aspect ratio : 16:9 Frame rate mode : Constant Frame rate : 23.976 (24000/1001) FPS Color space : YUV Chroma subsampling : 4:2:0 Bit depth : 10 bits Scan type : Progressive Bits/(Pixel*Frame) : 0.105 Stream size : 593 MiB (97%) Writing library : x264 core 133 r2334 a3ac64b Encoding settings : cabac=1 / ref=16 / deblock=1:0:0 / analyse=0x3:0x113 / me=umh / subme=11 / psy=1 / psy_rd=1.00:0.00 / mixed_ref=1 / me_range=16 / chroma_me=1 / trellis=2 / 8x8dct=1 / cqm=0 / deadzone=21,11 / fast_pskip=1 / chroma_qp_offset=-2 / threads=12 / lookahead_threads=1 / sliced_threads=0 / nr=0 / decimate=1 / interlaced=0 / bluray_compat=0 / constrained_intra=0 / bframes=3 / b_pyramid=2 / b_adapt=2 / b_bias=0 / direct=3 / weightb=1 / open_gop=0 / weightp=2 / keyint=240 / keyint_min=24 / scenecut=40 / intra_refresh=0 / rc_lookahead=50 / rc=crf / mbtree=1 / crf=18.0 / qcomp=0.60 / qpmin=0 / qpmax=81 / qpstep=4 / ip_ratio=1.40 / aq=1:1.00 Default : Yes Forced : No Audio ID : 2 Format : AAC Format/Info : Advanced Audio Codec Format profile : LC Codec ID : A_AAC-2 Duration : 15 min 49 s Bit rate : 160 kb/s Channel(s) : 2 channels Channel positions : Front: L R Sampling rate : 48.0 kHz Frame rate : 46.875 FPS (1024 SPF) Compression mode : Lossy Delay relative to video : 9 ms Stream size : 18.1 MiB (3%) Default : Yes Forced : No

File list

  • Green_eyes_-_Ane_kyun!_Yori_[UNCEN][BDrip]_(2017)
    • CHI
      • Green_eyes_-_Ane_kyun!_Yori_[UNCEN][BDrip][erokuni][E9C6516F].chi_Maho.sub.ass (10.2 KiB)
    • ENG
      • Green_eyes_-_Ane_kyun!_Yori_[UNCEN][BDrip][erokuni][E9C6516F].eng_HH.ass (11.1 KiB)
      • Green_eyes_-_Ane_kyun!_Yori_[UNCEN][BDrip][erokuni][E9C6516F].eng_Hentaisun.ass (10.8 KiB)
    • RUS
      • Green_eyes_-_Ane_kyun!_Yori_[UNCEN][BDrip][erokuni][E9C6516F].rus_IbanPetrov.ass (13.6 KiB)
    • SPA
      • Green_eyes_-_Ane_kyun!_Yori_[UNCEN][BDrip][erokuni][E9C6516F].spa_Dai-Anime.ass (35.1 KiB)
      • Green_eyes_-_Ane_kyun!_Yori_[UNCEN][BDrip][erokuni][E9C6516F].spa_GSF.ass (67.8 KiB)
    • screenlists
      • Green_eyes_-_Ane_kyun!_Yori_[UNCEN][BDrip][erokuni][E9C6516F].mkv_thumbs.jpg (293.8 KiB)
    • Green_eyes_-_Ane_kyun!_Yori_[UNCEN][BDrip][erokuni][E9C6516F].mkv (610.9 MiB)